  0
SECTION
  2
HEADER
  9
$ACADVER
  1
AC1014
  9
$ACADMAINTVER
 70
     9
  9
$DWGCODEPAGE
  3
ANSI_1250
  9
$INSBASE
 10
0.0
 20
0.0
 30
0.0
  9
$EXTMIN
 10
-0.8022870508063589
 20
8.0
 30
0.0
  9
$EXTMAX
 10
103.5000650927916
 20
50.27900042164816
 30
0.0
  9
$LIMMIN
 10
0.0
 20
0.0
  9
$LIMMAX
 10
12.0
 20
9.0
  9
$ORTHOMODE
 70
     0
  9
$REGENMODE
 70
     1
  9
$FILLMODE
 70
     1
  9
$QTEXTMODE
 70
     0
  9
$MIRRTEXT
 70
     0
  9
$DRAGMODE
 70
     2
  9
$LTSCALE
 40
1.0
  9
$OSMODE
 70
 15359
  9
$ATTMODE
 70
     1
  9
$TEXTSIZE
 40
0.2
  9
$TRACEWID
 40
0.05
  9
$TEXTSTYLE
  7
STANDARD
  9
$CLAYER
  8
KOTY
  9
$CELTYPE
  6
BYLAYER
  9
$CECOLOR
 62
   256
  9
$CELTSCALE
 40
1.0
  9
$DELOBJ
 70
     1
  9
$DISPSILH
 70
     0
  9
$DIMSCALE
 40
1.0
  9
$DIMASZ
 40
0.18
  9
$DIMEXO
 40
0.0625
  9
$DIMDLI
 40
0.38
  9
$DIMRND
 40
0.0
  9
$DIMDLE
 40
0.0
  9
$DIMEXE
 40
0.18
  9
$DIMTP
 40
0.0
  9
$DIMTM
 40
0.0
  9
$DIMTXT
 40
0.18
  9
$DIMCEN
 40
0.09
  9
$DIMTSZ
 40
0.0
  9
$DIMTOL
 70
     0
  9
$DIMLIM
 70
     0
  9
$DIMTIH
 70
     1
  9
$DIMTOH
 70
     1
  9
$DIMSE1
 70
     0
  9
$DIMSE2
 70
     0
  9
$DIMTAD
 70
     0
  9
$DIMZIN
 70
     0
  9
$DIMBLK
  1

  9
$DIMASO
 70
     1
  9
$DIMSHO
 70
     1
  9
$DIMPOST
  1

  9
$DIMAPOST
  1

  9
$DIMALT
 70
     0
  9
$DIMALTD
 70
     2
  9
$DIMALTF
 40
25.4
  9
$DIMLFAC
 40
1.0
  9
$DIMTOFL
 70
     0
  9
$DIMTVP
 40
0.0
  9
$DIMTIX
 70
     0
  9
$DIMSOXD
 70
     0
  9
$DIMSAH
 70
     0
  9
$DIMBLK1
  1

  9
$DIMBLK2
  1

  9
$DIMSTYLE
  2
STANDARD
  9
$DIMCLRD
 70
     0
  9
$DIMCLRE
 70
     0
  9
$DIMCLRT
 70
     0
  9
$DIMTFAC
 40
1.0
  9
$DIMGAP
 40
0.09
  9
$DIMJUST
 70
     0
  9
$DIMSD1
 70
     0
  9
$DIMSD2
 70
     0
  9
$DIMTOLJ
 70
     1
  9
$DIMTZIN
 70
     0
  9
$DIMALTZ
 70
     0
  9
$DIMALTTZ
 70
     0
  9
$DIMFIT
 70
     5
  9
$DIMUPT
 70
     0
  9
$DIMUNIT
 70
     2
  9
$DIMDEC
 70
     4
  9
$DIMTDEC
 70
     4
  9
$DIMALTU
 70
     2
  9
$DIMALTTD
 70
     2
  9
$DIMTXSTY
  7
STANDARD
  9
$DIMAUNIT
 70
     0
  9
$LUNITS
 70
     2
  9
$LUPREC
 70
     4
  9
$SKETCHINC
 40
0.1
  9
$FILLETRAD
 40
0.0
  9
$AUNITS
 70
     0
  9
$AUPREC
 70
     0
  9
$MENU
  1
.
  9
$ELEVATION
 40
0.0
  9
$PELEVATION
 40
0.0
  9
$THICKNESS
 40
0.0
  9
$LIMCHECK
 70
     0
  9
$CHAMFERA
 40
0.0
  9
$CHAMFERB
 40
0.0
  9
$CHAMFERC
 40
0.0
  9
$CHAMFERD
 40
0.0
  9
$SKPOLY
 70
     0
  9
$TDCREATE
 40
2452643.105050926
  9
$TDUPDATE
 40
2456764.543980891
  9
$TDINDWG
 40
0.0202368287
  9
$TDUSRTIMER
 40
2456764.459854734
  9
$USRTIMER
 70
     1
  9
$ANGBASE
 50
0.0
  9
$ANGDIR
 70
     0
  9
$PDMODE
 70
     0
  9
$PDSIZE
 40
0.0
  9
$PLINEWID
 40
0.0
  9
$COORDS
 70
     2
  9
$SPLFRAME
 70
     0
  9
$SPLINETYPE
 70
     6
  9
$SPLINESEGS
 70
     8
  9
$ATTDIA
 70
     0
  9
$ATTREQ
 70
     1
  9
$HANDLING
 70
     1
  9
$HANDSEED
  5
21E
  9
$SURFTAB1
 70
     6
  9
$SURFTAB2
 70
     6
  9
$SURFTYPE
 70
     6
  9
$SURFU
 70
     6
  9
$SURFV
 70
     6
  9
$UCSNAME
  2

  9
$UCSORG
 10
0.0
 20
0.0
 30
0.0
  9
$UCSXDIR
 10
1.0
 20
0.0
 30
0.0
  9
$UCSYDIR
 10
0.0
 20
1.0
 30
0.0
  9
$PUCSNAME
  2

  9
$PUCSORG
 10
0.0
 20
0.0
 30
0.0
  9
$PUCSXDIR
 10
1.0
 20
0.0
 30
0.0
  9
$PUCSYDIR
 10
0.0
 20
1.0
 30
0.0
  9
$USERI1
 70
     0
  9
$USERI2
 70
     0
  9
$USERI3
 70
     0
  9
$USERI4
 70
     0
  9
$USERI5
 70
     0
  9
$USERR1
 40
0.0
  9
$USERR2
 40
0.0
  9
$USERR3
 40
0.0
  9
$USERR4
 40
0.0
  9
$USERR5
 40
0.0
  9
$WORLDVIEW
 70
     1
  9
$SHADEDGE
 70
     3
  9
$SHADEDIF
 70
    70
  9
$TILEMODE
 70
     0
  9
$MAXACTVP
 70
    64
  9
$PINSBASE
 10
0.0
 20
0.0
 30
0.0
  9
$PLIMCHECK
 70
     0
  9
$PEXTMIN
 10
1.05
 20
0.7999999999999998
 30
0.0
  9
$PEXTMAX
 10
9.45
 20
7.2
 30
0.0
  9
$PLIMMIN
 10
0.8500000000000006
 20
0.5999999999999998
  9
$PLIMMAX
 10
9.650000000000002
 20
7.4
  9
$UNITMODE
 70
     0
  9
$VISRETAIN
 70
     1
  9
$PLINEGEN
 70
     0
  9
$PSLTSCALE
 70
     1
  9
$TREEDEPTH
 70
  3020
  9
$PICKSTYLE
 70
     0
  9
$CMLSTYLE
  2
STANDARD
  9
$CMLJUST
 70
     0
  9
$CMLSCALE
 40
1.0
  9
$PROXYGRAPHICS
 70
     1
  9
$MEASUREMENT
 70
     0
  0
ENDSEC
  0
SECTION
  2
CLASSES
  0
CLASS
  1
ACDBDICTIONARYWDFLT
  2
AcDbDictionaryWithDefault
  3
ObjectDBX Classes
 90
        0
280
     0
281
     0
  0
CLASS
  1
ACDBPLACEHOLDER
  2
AcDbPlaceHolder
  3
ObjectDBX Classes
 90
        0
280
     0
281
     0
  0
CLASS
  1
LAYOUT
  2
AcDbLayout
  3
ObjectDBX Classes
 90
        0
280
     0
281
     0
  0
CLASS
  1
DICTIONARYVAR
  2
AcDbDictionaryVar
  3
ObjectDBX Classes
 90
        0
280
     0
281
     0
  0
CLASS
  1
TABLESTYLE
  2
AcDbTableStyle
  3
ObjectDBX Classes
 90
     4095
280
     0
281
     0
  0
CLASS
  1
MATERIAL
  2
AcDbMaterial
  3
ObjectDBX Classes
 90
     1153
280
     0
281
     0
  0
CLASS
  1
VISUALSTYLE
  2
AcDbVisualStyle
  3
ObjectDBX Classes
 90
     4095
280
     0
281
     0
  0
CLASS
  1
SCALE
  2
AcDbScale
  3
ObjectDBX Classes
 90
     1153
280
     0
281
     0
  0
CLASS
  1
CELLSTYLEMAP
  2
AcDbCellStyleMap
  3
ObjectDBX Classes
 90
     1152
280
     0
281
     0
  0
CLASS
  1
RASTERVARIABLES
  2
AcDbRasterVariables
  3
ISM
 90
        0
280
     0
281
     0
  0
CLASS
  1
SUN
  2
AcDbSun
  3
SCENEOE
 90
     1153
280
     0
281
     0
  0
CLASS
  1
DIMASSOC
  2
AcDbDimAssoc
  3
"AcDbDimAssoc|Product Desc:     AcDim ARX App For Dimension|Company:          Autodesk, Inc.|WEB Address:      www.autodesk.com"
 90
        0
280
     0
281
     0
  0
CLASS
  1
XRECORD
  2
AcDbXrecord
  3
ObjectDBX Classes
 90
        0
280
     0
281
     0
  0
CLASS
  1
LWPOLYLINE
  2
AcDbPolyline
  3
ObjectDBX Classes
 90
        0
280
     0
281
     1
  0
CLASS
  1
HATCH
  2
AcDbHatch
  3
ObjectDBX Classes
 90
        0
280
     0
281
     1
  0
ENDSEC
  0
SECTION
  2
TABLES
  0
TABLE
  2
VPORT
  5
8
330
0
100
AcDbSymbolTable
 70
     1
  0
VPORT
  5
94
330
8
100
AcDbSymbolTableRecord
100
AcDbViewportTableRecord
  2
*ACTIVE
 70
     0
 10
0.0
 20
0.0
 11
1.0
 21
1.0
 12
79.0328507672273
 22
44.83967630189752
 13
0.0
 23
0.0
 14
0.5
 24
0.5
 15
0.5
 25
0.5
 16
0.0
 26
0.0
 36
1.0
 17
-27.66959356597989
 27
-19.53870295786203
 37
0.0
 40
91.9950421612946
 41
1.259351620947631
 42
50.0
 43
0.0
 44
0.0
 50
0.0
 51
0.0
 71
    16
 72
  1000
 73
     1
 74
     3
 75
     0
 76
     0
 77
     0
 78
     0
  0
ENDTAB
  0
TABLE
  2
LTYPE
  5
5
330
0
100
AcDbSymbolTable
 70
     1
  0
LTYPE
  5
14
330
5
100
AcDbSymbolTableRecord
100
AcDbLinetypeTableRecord
  2
BYBLOCK
 70
     0
  3

 72
    65
 73
     0
 40
0.0
  0
LTYPE
  5
15
330
5
100
AcDbSymbolTableRecord
100
AcDbLinetypeTableRecord
  2
BYLAYER
 70
     0
  3
Solid line
 72
    65
 73
     0
 40
0.0
  0
LTYPE
  5
16
330
5
100
AcDbSymbolTableRecord
100
AcDbLinetypeTableRecord
  2
CONTINUOUS
 70
     0
  3
Solid line
 72
    65
 73
     0
 40
0.0
  0
ENDTAB
  0
TABLE
  2
LAYER
  5
2
102
{ACAD_XDICTIONARY
360
194
102
}
330
0
100
AcDbSymbolTable
 70
     4
  0
LAYER
  5
10
330
2
100
AcDbSymbolTableRecord
100
AcDbLayerTableRecord
  2
0
 70
     0
 62
     7
  6
CONTINUOUS
  0
LAYER
  5
138
330
2
100
AcDbSymbolTableRecord
100
AcDbLayerTableRecord
  2
DEFPOINTS
 70
     0
 62
     7
  6
CONTINUOUS
  0
LAYER
  5
139
330
2
100
AcDbSymbolTableRecord
100
AcDbLayerTableRecord
  2
OBRYS
 70
     0
 62
     5
  6
CONTINUOUS
  0
LAYER
  5
13B
330
2
100
AcDbSymbolTableRecord
100
AcDbLayerTableRecord
  2
KOTY
 70
     0
 62
     1
  6
CONTINUOUS
1001
ACAECLAYERSTANDARD
1000

1000

  0
ENDTAB
  0
TABLE
  2
STYLE
  5
3
330
0
100
AcDbSymbolTable
 70
     1
  0
STYLE
  5
11
330
3
100
AcDbSymbolTableRecord
100
AcDbTextStyleTableRecord
  2
STANDARD
 70
     0
 40
0.0
 41
1.0
 50
0.0
 71
     0
 42
0.2
  3
arial.ttf
  4

1001
ACAD
1000
Arial
1071
        0
  0
ENDTAB
  0
TABLE
  2
VIEW
  5
6
330
0
100
AcDbSymbolTable
 70
     0
  0
ENDTAB
  0
TABLE
  2
UCS
  5
7
330
0
100
AcDbSymbolTable
 70
     0
  0
ENDTAB
  0
TABLE
  2
APPID
  5
9
330
0
100
AcDbSymbolTable
 70
     2
  0
APPID
  5
12
330
9
100
AcDbSymbolTableRecord
100
AcDbRegAppTableRecord
  2
ACAD
 70
     0
  0
APPID
  5
13C
330
9
100
AcDbSymbolTableRecord
100
AcDbRegAppTableRecord
  2
ACAECLAYERSTANDARD
 70
     0
  0
ENDTAB
  0
TABLE
  2
DIMSTYLE
  5
A
330
0
100
AcDbSymbolTable
 70
     2
  0
DIMSTYLE
105
27
102
{ACAD_REACTORS
330
19F
330
1AF
330
1BF
102
}
330
A
100
AcDbSymbolTableRecord
100
AcDbDimStyleTableRecord
  2
STANDARD
 70
     0
  3

  4

  5

  6

  7

 40
1.0
 41
0.18
 42
0.0625
 43
0.38
 44
0.18
 45
0.0
 46
0.0
 47
0.0
 48
0.0
140
0.18
141
0.09
142
0.0
143
25.4
144
1.0
145
0.0
146
1.0
147
0.09
 71
     0
 72
     0
 73
     1
 74
     1
 75
     0
 76
     0
 77
     0
 78
     0
170
     0
171
     2
172
     0
173
     0
174
     0
175
     0
176
     0
177
     0
178
     0
270
     2
271
     4
272
     4
273
     2
274
     2
340
11
275
     0
280
     0
281
     0
282
     0
283
     1
284
     0
285
     0
286
     0
287
     3
288
     0
  0
DIMSTYLE
105
13F
102
{ACAD_REACTORS
330
185
102
}
330
A
100
AcDbSymbolTableRecord
100
AcDbDimStyleTableRecord
  2
ISO-25
 70
     0
  3

  4

  5

  6

  7

 40
1.0
 41
6.0
 42
0.0
 43
3.75
 44
1.25
 45
0.0
 46
0.0
 47
0.0
 48
0.0
140
3.0
141
2.5
142
0.0
143
0.03937007874016
144
1.0
145
0.0
146
1.0
147
0.625
 71
     0
 72
     0
 73
     0
 74
     1
 75
     0
 76
     0
 77
     1
 78
     8
170
     0
171
     3
172
     1
173
     0
174
     0
175
     0
176
     5
177
     5
178
     5
270
     2
271
     4
272
     4
273
     2
274
     2
340
11
275
     0
280
     0
281
     0
282
     0
283
     1
284
     0
285
     0
286
     0
287
     3
288
     0
  0
ENDTAB
  0
TABLE
  2
BLOCK_RECORD
  5
1
330
0
100
AcDbSymbolTable
 70
     5
  0
BLOCK_RECORD
  5
1F
330
1
100
AcDbSymbolTableRecord
100
AcDbBlockTableRecord
  2
*MODEL_SPACE
  0
BLOCK_RECORD
  5
58
330
1
100
AcDbSymbolTableRecord
100
AcDbBlockTableRecord
  2
*PAPER_SPACE
  0
BLOCK_RECORD
  5
5D
330
1
100
AcDbSymbolTableRecord
100
AcDbBlockTableRecord
  2
*PAPER_SPACE0
  0
BLOCK_RECORD
  5
188
330
1
100
AcDbSymbolTableRecord
100
AcDbBlockTableRecord
  2
*D1
  0
BLOCK_RECORD
  5
1A2
330
1
100
AcDbSymbolTableRecord
100
AcDbBlockTableRecord
  2
*D2
  0
BLOCK_RECORD
  5
1B2
330
1
100
AcDbSymbolTableRecord
100
AcDbBlockTableRecord
  2
*D3
  0
BLOCK_RECORD
  5
1C2
330
1
100
AcDbSymbolTableRecord
100
AcDbBlockTableRecord
  2
*D4
  0
ENDTAB
  0
ENDSEC
  0
SECTION
  2
BLOCKS
  0
BLOCK
  5
20
330
1F
100
AcDbEntity
  8
0
100
AcDbBlockBegin
  2
*MODEL_SPACE
 70
     0
 10
0.0
 20
0.0
 30
0.0
  3
*MODEL_SPACE
  1

  0
ENDBLK
  5
21
330
1F
100
AcDbEntity
  8
0
100
AcDbBlockEnd
  0
BLOCK
  5
5A
330
58
100
AcDbEntity
 67
     1
  8
0
100
AcDbBlockBegin
  2
*PAPER_SPACE
 70
     0
 10
0.0
 20
0.0
 30
0.0
  3
*PAPER_SPACE
  1

  0
ENDBLK
  5
5B
330
58
100
AcDbEntity
 67
     1
  8
0
100
AcDbBlockEnd
  0
BLOCK
  5
5F
330
5D
100
AcDbEntity
  8
0
100
AcDbBlockBegin
  2
*PAPER_SPACE0
 70
     0
 10
0.0
 20
0.0
 30
0.0
  3
*PAPER_SPACE0
  1
*PAPER_SPACE0
  0
ENDBLK
  5
60
330
5D
100
AcDbEntity
  8
0
100
AcDbBlockEnd
  0
BLOCK
  5
189
330
188
100
AcDbEntity
  8
0
100
AcDbBlockBegin
  2
*D1
 70
     1
 10
0.0
 20
0.0
 30
0.0
  3
*D1
  1
*D3
  0
LINE
  5
18B
330
188
100
AcDbEntity
  8
KOTY
100
AcDbLine
 10
58.0
 20
35.40939972855918
 30
0.0
 11
58.0
 21
46.92320700091287
 31
0.0
  0
LINE
  5
18C
330
188
100
AcDbEntity
  8
KOTY
100
AcDbLine
 10
103.5000650927916
 20
33.40941058000331
 30
0.0
 11
103.5000650927916
 21
46.92320700091287
 31
0.0
  0
LINE
  5
18D
330
188
100
AcDbEntity
  8
KOTY
100
AcDbLine
 10
61.0
 20
45.67320700091287
 30
0.0
 11
100.5000650927916
 21
45.67320700091287
 31
0.0
  0
SOLID
  5
18E
330
188
100
AcDbEntity
  8
KOTY
100
AcDbTrace
 10
61.0
 20
46.17320700091287
 30
0.0
 11
61.0
 21
45.17320700091287
 31
0.0
 12
58.0
 22
45.67320700091287
 32
0.0
 13
58.0
 23
45.67320700091287
 33
0.0
  0
SOLID
  5
18F
330
188
100
AcDbEntity
  8
KOTY
100
AcDbTrace
 10
100.5000650927916
 20
45.17320700091287
 30
0.0
 11
100.5000650927916
 21
46.17320700091287
 31
0.0
 12
103.5000650927916
 22
45.67320700091287
 32
0.0
 13
103.5000650927916
 23
45.67320700091287
 33
0.0
  0
MTEXT
  5
190
330
188
100
AcDbEntity
  8
KOTY
100
AcDbMText
 10
80.2500325463958
 20
48.65385653246827
 30
0.0
 40
3.0
 41
0.0
 71
     5
 72
     1
  1
\A1;150
  0
POINT
  5
191
330
188
100
AcDbEntity
  8
DEFPOINTS
 62
     0
100
AcDbPoint
 10
58.0
 20
35.40939972855918
 30
0.0
  0
POINT
  5
192
330
188
100
AcDbEntity
  8
DEFPOINTS
 62
     0
100
AcDbPoint
 10
103.5000650927916
 20
33.40941058000331
 30
0.0
  0
POINT
  5
193
330
188
100
AcDbEntity
  8
DEFPOINTS
 62
     0
100
AcDbPoint
 10
103.5000650927916
 20
45.67320700091287
 30
0.0
  0
ENDBLK
  5
18A
330
188
100
AcDbEntity
  8
0
100
AcDbBlockEnd
  0
BLOCK
  5
1A3
330
1A2
100
AcDbEntity
  8
0
100
AcDbBlockBegin
  2
*D2
 70
     1
 10
0.0
 20
0.0
 30
0.0
  3
*D2
  1
*D4
  0
LINE
  5
1A5
330
1A2
100
AcDbEntity
  8
KOTY
 62
     0
100
AcDbLine
 10
10.0
 20
38.5625
 30
0.0
 11
10.0
 21
45.85000042164817
 31
0.0
  0
LINE
  5
1A6
330
1A2
100
AcDbEntity
  8
KOTY
 62
     0
100
AcDbLine
 10
30.0
 20
38.5625
 30
0.0
 11
30.0
 21
45.85000042164817
 31
0.0
  0
LINE
  5
1A7
330
1A2
100
AcDbEntity
  8
KOTY
 62
     0
100
AcDbLine
 10
13.0
 20
45.67000042164817
 30
0.0
 11
27.0
 21
45.67000042164817
 31
0.0
  0
SOLID
  5
1A8
330
1A2
100
AcDbEntity
  8
KOTY
 62
     0
100
AcDbTrace
 10
13.0
 20
46.17000042164817
 30
0.0
 11
13.0
 21
45.17000042164817
 31
0.0
 12
10.0
 22
45.67000042164817
 32
0.0
 13
10.0
 23
45.67000042164817
 33
0.0
  0
SOLID
  5
1A9
330
1A2
100
AcDbEntity
  8
KOTY
 62
     0
100
AcDbTrace
 10
27.0
 20
45.17000042164817
 30
0.0
 11
27.0
 21
46.17000042164817
 31
0.0
 12
30.0
 22
45.67000042164817
 32
0.0
 13
30.0
 23
45.67000042164817
 33
0.0
  0
MTEXT
  5
1AA
330
1A2
100
AcDbEntity
  8
KOTY
 62
     0
100
AcDbMText
 10
20.0
 20
48.47150042164817
 30
0.0
 40
3.0
 41
0.0
 71
     5
 72
     1
  1
\A1;20,0
  0
POINT
  5
1AB
330
1A2
100
AcDbEntity
  8
DEFPOINTS
 62
     0
100
AcDbPoint
 10
10.0
 20
38.5
 30
0.0
  0
POINT
  5
1AC
330
1A2
100
AcDbEntity
  8
DEFPOINTS
 62
     0
100
AcDbPoint
 10
30.0
 20
38.5
 30
0.0
  0
POINT
  5
1AD
330
1A2
100
AcDbEntity
  8
DEFPOINTS
 62
     0
100
AcDbPoint
 10
30.0
 20
45.67000042164817
 30
0.0
  0
ENDBLK
  5
1A4
330
1A2
100
AcDbEntity
  8
0
100
AcDbBlockEnd
  0
BLOCK
  5
1B3
330
1B2
100
AcDbEntity
  8
0
100
AcDbBlockBegin
  2
*D3
 70
     1
 10
0.0
 20
0.0
 30
0.0
  3
*D3
  1
*D5
  0
LINE
  5
1B5
330
1B2
100
AcDbEntity
  8
KOTY
 62
     0
100
AcDbLine
 10
9.9375
 20
8.0
 30
0.0
 11
3.62671294919364
 21
8.0
 31
0.0
  0
LINE
  5
1B6
330
1B2
100
AcDbEntity
  8
KOTY
 62
     0
100
AcDbLine
 10
9.9375
 20
38.5
 30
0.0
 11
3.626712949193642
 21
38.5
 31
0.0
  0
LINE
  5
1B7
330
1B2
100
AcDbEntity
  8
KOTY
 62
     0
100
AcDbLine
 10
3.80671294919364
 20
11.0
 30
0.0
 11
3.806712949193642
 21
35.5
 31
0.0
  0
SOLID
  5
1B8
330
1B2
100
AcDbEntity
  8
KOTY
 62
     0
100
AcDbTrace
 10
3.30671294919364
 20
11.0
 30
0.0
 11
4.30671294919364
 21
11.0
 31
0.0
 12
3.80671294919364
 22
8.0
 32
0.0
 13
3.80671294919364
 23
8.0
 33
0.0
  0
SOLID
  5
1B9
330
1B2
100
AcDbEntity
  8
KOTY
 62
     0
100
AcDbTrace
 10
4.306712949193642
 20
35.5
 30
0.0
 11
3.306712949193642
 21
35.5
 31
0.0
 12
3.806712949193642
 22
38.5
 32
0.0
 13
3.806712949193642
 23
38.5
 33
0.0
  0
MTEXT
  5
1BA
330
1B2
100
AcDbEntity
  8
KOTY
 62
     0
100
AcDbMText
 10
1.00521294919364
 20
23.25
 30
0.0
 40
3.0
 41
0.0
 71
     5
 72
     1
  1
\A1;30,5
 11
5.824120784918854E-17
 21
1.0
 31
0.0
  0
POINT
  5
1BB
330
1B2
100
AcDbEntity
  8
DEFPOINTS
 62
     0
100
AcDbPoint
 10
10.0
 20
8.0
 30
0.0
  0
POINT
  5
1BC
330
1B2
100
AcDbEntity
  8
DEFPOINTS
 62
     0
100
AcDbPoint
 10
10.0
 20
38.5
 30
0.0
  0
POINT
  5
1BD
330
1B2
100
AcDbEntity
  8
DEFPOINTS
 62
     0
100
AcDbPoint
 10
3.806712949193642
 20
38.5
 30
0.0
  0
ENDBLK
  5
1B4
330
1B2
100
AcDbEntity
  8
0
100
AcDbBlockEnd
  0
BLOCK
  5
1C3
330
1C2
100
AcDbEntity
  8
0
100
AcDbBlockBegin
  2
*D4
 70
     1
 10
0.0
 20
0.0
 30
0.0
  3
*D4
  1
*D6
  0
LINE
  5
1C5
330
1C2
100
AcDbEntity
  8
KOTY
 62
     0
100
AcDbLine
 10
45.0
 20
38.5625
 30
0.0
 11
45.0
 21
45.85000042164817
 31
0.0
  0
LINE
  5
1C6
330
1C2
100
AcDbEntity
  8
KOTY
 62
     0
100
AcDbLine
 10
58.0
 20
38.5625
 30
0.0
 11
58.0
 21
45.85000042164817
 31
0.0
  0
LINE
  5
1C7
330
1C2
100
AcDbEntity
  8
KOTY
 62
     0
100
AcDbLine
 10
48.0
 20
45.67000042164817
 30
0.0
 11
55.0
 21
45.67000042164817
 31
0.0
  0
SOLID
  5
1C8
330
1C2
100
AcDbEntity
  8
KOTY
 62
     0
100
AcDbTrace
 10
48.0
 20
46.17000042164817
 30
0.0
 11
48.0
 21
45.17000042164817
 31
0.0
 12
45.0
 22
45.67000042164817
 32
0.0
 13
45.0
 23
45.67000042164817
 33
0.0
  0
SOLID
  5
1C9
330
1C2
100
AcDbEntity
  8
KOTY
 62
     0
100
AcDbTrace
 10
55.0
 20
45.17000042164817
 30
0.0
 11
55.0
 21
46.17000042164817
 31
0.0
 12
58.0
 22
45.67000042164817
 32
0.0
 13
58.0
 23
45.67000042164817
 33
0.0
  0
MTEXT
  5
1CA
330
1C2
100
AcDbEntity
  8
KOTY
 62
     0
100
AcDbMText
 10
51.5
 20
48.47150042164817
 30
0.0
 40
3.0
 41
0.0
 71
     5
 72
     1
  1
\A1;13,0
  0
POINT
  5
1CB
330
1C2
100
AcDbEntity
  8
DEFPOINTS
 62
     0
100
AcDbPoint
 10
45.0
 20
38.5
 30
0.0
  0
POINT
  5
1CC
330
1C2
100
AcDbEntity
  8
DEFPOINTS
 62
     0
100
AcDbPoint
 10
58.0
 20
38.5
 30
0.0
  0
POINT
  5
1CD
330
1C2
100
AcDbEntity
  8
DEFPOINTS
 62
     0
100
AcDbPoint
 10
58.0
 20
45.67000042164817
 30
0.0
  0
ENDBLK
  5
1C4
330
1C2
100
AcDbEntity
  8
0
100
AcDbBlockEnd
  0
ENDSEC
  0
SECTION
  2
ENTITIES
  0
LINE
  5
124
330
1F
100
AcDbEntity
  8
OBRYS
100
AcDbLine
 10
10.0
 20
38.5
 30
0.0
 11
10.0
 21
8.0
 31
0.0
  0
LINE
  5
125
330
1F
100
AcDbEntity
  8
OBRYS
100
AcDbLine
 10
10.0
 20
8.0
 30
0.0
 11
30.0
 21
8.0
 31
0.0
  0
LINE
  5
126
330
1F
100
AcDbEntity
  8
OBRYS
100
AcDbLine
 10
10.0
 20
38.5
 30
0.0
 11
30.0
 21
38.5
 31
0.0
  0
LINE
  5
127
330
1F
100
AcDbEntity
  8
OBRYS
100
AcDbLine
 10
30.0
 20
38.5
 30
0.0
 11
30.0
 21
8.0
 31
0.0
  0
LINE
  5
12C
330
1F
100
AcDbEntity
  8
OBRYS
100
AcDbLine
 10
45.0
 20
38.5
 30
0.0
 11
45.0
 21
8.0
 31
0.0
  0
LINE
  5
12D
330
1F
100
AcDbEntity
  8
OBRYS
100
AcDbLine
 10
45.0
 20
8.0
 30
0.0
 11
56.0
 21
8.0
 31
0.0
  0
LINE
  5
12E
330
1F
100
AcDbEntity
  8
OBRYS
100
AcDbLine
 10
45.0
 20
38.5
 30
0.0
 11
58.0
 21
38.5
 31
0.0
  0
LINE
  5
12F
330
1F
100
AcDbEntity
  8
OBRYS
100
AcDbLine
 10
58.0
 20
38.5
 30
0.0
 11
58.0
 21
14.0
 31
0.0
  0
LINE
  5
135
330
1F
100
AcDbEntity
  8
OBRYS
100
AcDbLine
 10
56.0
 20
38.5
 30
0.0
 11
56.0
 21
8.0
 31
0.0
  0
LINE
  5
136
330
1F
100
AcDbEntity
  8
OBRYS
100
AcDbLine
 10
56.0
 20
14.0
 30
0.0
 11
58.0
 21
14.0
 31
0.0
  0
LINE
  5
17A
330
1F
100
AcDbEntity
  8
OBRYS
100
AcDbLine
 10
103.5000650927916
 20
33.40941058000331
 30
0.0
 11
103.5000650927916
 21
31.40936039604131
 31
0.0
  0
LINE
  5
17B
330
1F
100
AcDbEntity
  8
OBRYS
100
AcDbLine
 10
103.5000650927916
 20
33.40941058000331
 30
0.0
 11
77.95847167469776
 21
33.40941058000331
 31
0.0
  0
LINE
  5
17C
330
1F
100
AcDbEntity
  8
OBRYS
100
AcDbLine
 10
103.5000650927916
 20
31.40936039604131
 30
0.0
 11
77.96019422244035
 21
31.40936039604131
 31
0.0
  0
LINE
  5
17D
330
1F
100
AcDbEntity
  8
OBRYS
100
AcDbLine
 10
77.95847167469776
 20
33.40941058000331
 30
0.0
 11
78.95927191316287
 21
32.60343049122926
 31
0.0
  0
LINE
  5
17E
330
1F
100
AcDbEntity
  8
OBRYS
100
AcDbLine
 10
78.95927191316287
 20
32.60343049122926
 30
0.0
 11
77.53127983452691
 21
31.76833934560423
 31
0.0
  0
LINE
  5
17F
330
1F
100
AcDbEntity
  8
OBRYS
100
AcDbLine
 10
77.53127983452691
 20
31.76833934560423
 30
0.0
 11
77.96019422244035
 21
31.40936039604131
 31
0.0
  0
LINE
  5
180
330
1F
100
AcDbEntity
  8
OBRYS
100
AcDbLine
 10
76.4105902731751
 20
33.40941058000331
 30
0.0
 11
77.36660427033178
 21
32.63943173905037
 31
0.0
  0
LINE
  5
181
330
1F
100
AcDbEntity
  8
OBRYS
100
AcDbLine
 10
77.36660427033178
 20
32.63943173905037
 30
0.0
 11
75.93861219169582
 21
31.80416833865129
 31
0.0
  0
LINE
  5
182
330
1F
100
AcDbEntity
  8
OBRYS
100
AcDbLine
 10
75.93861219169582
 20
31.80416833865129
 30
0.0
 11
76.4105902731751
 21
31.40936039604131
 31
0.0
  0
LINE
  5
183
330
1F
100
AcDbEntity
  8
OBRYS
100
AcDbLine
 10
76.4105902731751
 20
31.40936039604131
 30
0.0
 11
58.0
 21
31.40936039604131
 31
0.0
  0
LINE
  5
184
330
1F
100
AcDbEntity
  8
OBRYS
100
AcDbLine
 10
76.4105902731751
 20
33.40941058000331
 30
0.0
 11
58.0
 21
33.40941058000331
 31
0.0
  0
DIMENSION
  5
185
330
1F
100
AcDbEntity
  8
KOTY
100
AcDbDimension
  2
*D1
 10
103.5000650927916
 20
45.67320700091287
 30
0.0
 11
80.2500325463958
 21
48.65385653246827
 31
0.0
 70
   160
  1
150
  3
ISO-25
100
AcDbAlignedDimension
 13
58.0
 23
35.40939972855918
 33
0.0
 14
103.5000650927916
 24
33.40941058000331
 34
0.0
100
AcDbRotatedDimension
1001
ACAD
1000
DSTYLE
1002
{
1070
   287
1070
     5
1070
   271
1070
     1
1070
   278
1070
    44
1070
   140
1040
3.0
1070
    73
1070
     0
1070
    77
1070
     1
1070
    41
1040
3.0
1070
   147
1040
1.0
1070
   178
1070
   256
1070
   176
1070
   256
1070
   177
1070
   256
1070
   279
1070
     2
1002
}
  0
DIMENSION
  5
19F
330
1F
100
AcDbEntity
  8
KOTY
100
AcDbDimension
  2
*D2
 10
30.0
 20
45.67000042164817
 30
0.0
 11
20.0
 21
48.47150042164817
 31
0.0
 70
    32
  3
STANDARD
100
AcDbAlignedDimension
 13
10.0
 23
38.5
 33
0.0
 14
30.0
 24
38.5
 34
0.0
100
AcDbRotatedDimension
1001
ACAD
1000
DSTYLE
1002
{
1070
   271
1070
     1
1070
   278
1070
    44
1070
   140
1040
3.0
1070
    73
1070
     0
1070
    77
1070
     1
1070
   147
1040
1.0
1070
    41
1040
3.0
1002
}
  0
DIMENSION
  5
1AF
330
1F
100
AcDbEntity
  8
KOTY
100
AcDbDimension
  2
*D3
 10
3.806712949193642
 20
38.5
 30
0.0
 11
1.00521294919364
 21
23.25
 31
0.0
 70
    32
  3
STANDARD
100
AcDbAlignedDimension
 13
10.0
 23
8.0
 33
0.0
 14
10.0
 24
38.5
 34
0.0
 50
90.0
100
AcDbRotatedDimension
1001
ACAD
1000
DSTYLE
1002
{
1070
   271
1070
     1
1070
   278
1070
    44
1070
   140
1040
3.0
1070
    73
1070
     0
1070
    77
1070
     1
1070
   147
1040
1.0
1070
    41
1040
3.0
1002
}
  0
DIMENSION
  5
1BF
330
1F
100
AcDbEntity
  8
KOTY
100
AcDbDimension
  2
*D4
 10
58.0
 20
45.67000042164817
 30
0.0
 11
51.5
 21
48.47150042164817
 31
0.0
 70
    32
  3
STANDARD
100
AcDbAlignedDimension
 13
45.0
 23
38.5
 33
0.0
 14
58.0
 24
38.5
 34
0.0
100
AcDbRotatedDimension
1001
ACAD
1000
DSTYLE
1002
{
1070
   271
1070
     1
1070
   278
1070
    44
1070
   140
1040
3.0
1070
    73
1070
     0
1070
    77
1070
     1
1070
   147
1040
1.0
1070
    41
1040
3.0
1002
}
  0
VIEWPORT
  5
1D3
330
58
100
AcDbEntity
 67
     1
  8
0
100
AcDbViewport
 10
0.0
 20
0.0
 30
0.0
 40
8.976
 41
6.936000000000001
 68
     1
 69
     1
1001
ACAD
1000
MVIEW
1002
{
1070
    16
1010
0.0
1020
0.0
1030
0.0
1010
0.0
1020
0.0
1030
1.0
1040
0.0
1040
6.936000000000001
1040
5.25
1040
4.0
1040
50.0
1040
0.0
1040
0.0
1070
     0
1070
   100
1070
     0
1070
     3
1070
     0
1070
     0
1070
     0
1070
     0
1040
0.0
1040
0.0
1040
0.0
1040
0.5
1040
0.5
1040
0.0
1040
0.0
1070
     0
1002
{
1002
}
1002
}
  0
VIEWPORT
  5
1D4
330
58
100
AcDbEntity
 67
     1
  8
0
100
AcDbViewport
 10
5.25
 20
4.0
 30
0.0
 40
8.4
 41
6.4
 68
     2
 69
     2
1001
ACAD
1000
MVIEW
1002
{
1070
    16
1010
0.0
1020
0.0
1030
0.0
1010
0.0
1020
0.0
1030
1.0
1040
0.0
1040
81.05782795159614
1040
51.34888902099262
1040
29.13950021082408
1040
50.0
1040
0.0
1040
0.0
1070
     0
1070
   100
1070
     0
1070
     3
1070
     0
1070
     0
1070
     0
1070
     0
1040
0.0
1040
0.0
1040
0.0
1040
0.5
1040
0.5
1040
0.0
1040
0.0
1070
     0
1002
{
1002
}
1002
}
  0
ENDSEC
  0
SECTION
  2
OBJECTS
  0
DICTIONARY
  5
C
330
0
100
AcDbDictionary
  3
ACAD_DETAILVIEWSTYLE
350
122
  3
ACAD_GROUP
350
D
  3
ACAD_IMAGE_VARS
350
DC
  3
ACAD_MLINESTYLE
350
17
  3
ACAD_SCALELIST
350
1D7
  3
ACAD_SECTIONVIEWSTYLE
350
123
  3
ACDBVARIABLEDICTIONARY
350
66
  3
APPDATA
350
E1
  3
DWGPROPS
350
21D
  0
DICTIONARY
  5
194
330
2
100
AcDbDictionary
280
     1
  3
ACAD_LAYERSTATES
360
195
  3
ACLYDICTIONARY
360
19E
  0
DICTIONARY
  5
122
102
{ACAD_REACTORS
330
C
102
}
330
C
100
AcDbDictionary
  0
DICTIONARY
  5
D
102
{ACAD_REACTORS
330
C
102
}
330
C
100
AcDbDictionary
  0
RASTERVARIABLES
  5
DC
102
{ACAD_REACTORS
330
C
102
}
330
C
100
AcDbRasterVariables
 90
        0
 70
     1
 71
     1
 72
     5
  0
DICTIONARY
  5
17
102
{ACAD_REACTORS
330
C
102
}
330
C
100
AcDbDictionary
  3
STANDARD
350
18
  0
DICTIONARY
  5
1D7
102
{ACAD_REACTORS
330
C
102
}
330
C
100
AcDbDictionary
  0
DICTIONARY
  5
123
102
{ACAD_REACTORS
330
C
102
}
330
C
100
AcDbDictionary
  0
DICTIONARY
  5
66
102
{ACAD_REACTORS
330
C
102
}
330
C
100
AcDbDictionary
  3
DIMASSOC
350
67
  3
HIDETEXT
350
6B
  0
DICTIONARY
  5
E1
102
{ACAD_REACTORS
330
C
102
}
330
C
100
AcDbDictionary
  0
XRECORD
  5
21D
102
{ACAD_REACTORS
330
C
102
}
330
C
100
AcDbXrecord
  1
DWGPROPS COOKIE
  2

  3

  4

  6

  7

  8
jaromir.podrabsky
  9

300
=
301
=
302
=
303
=
304
=
305
=
306
=
307
=
308
=
309
=
 40
0.0
 41
2452643.021717593
 42
2456764.460647558
  1

 90
        0
  0
DICTIONARY
  5
195
102
{ACAD_REACTORS
330
194
102
}
330
194
100
AcDbDictionary
  0
DICTIONARY
  5
19E
102
{ACAD_REACTORS
330
194
102
}
330
194
100
AcDbDictionary
1001
ACAD
1000
<All
  0
MLINESTYLE
  5
18
102
{ACAD_REACTORS
330
17
102
}
330
17
100
AcDbMlineStyle
  2
STANDARD
 70
     0
  3

 62
   256
 51
90.0
 52
90.0
 71
     2
 49
0.5
 62
   256
  6
BYLAYER
 49
-0.5
 62
   256
  6
BYLAYER
  0
DICTIONARYVAR
  5
67
102
{ACAD_REACTORS
330
66
102
}
330
66
100
DictionaryVariables
280
     0
  1
2
  0
DICTIONARYVAR
  5
6B
102
{ACAD_REACTORS
330
66
102
}
330
66
100
DictionaryVariables
280
     0
  1
1
  0
ENDSEC
  0
EOF
